<?xml version="1.0" standalone="no"?>
<!DOCTYPE svg PUBLIC "-//W3C//DTD SVG 1.1//EN" "http://www.w3.org/Graphics/SVG/1.1/DTD/svg11.dtd" >
<svg xmlns="http://www.w3.org/2000/svg" xmlns:xlink="http://www.w3.org/1999/xlink" version="1.1">
<metadata>
Created by FontForge 20190801 at Sun Aug  5 10:20:04 2001
 By chris
GPL, see http://www.gnu.org/licenses/gpl.txt
</metadata>
<defs>
<font id="FixedsysTTF" horiz-adv-x="550" >
  <font-face 
    font-family="FixedsysTTF"
    font-weight="600"
    font-stretch="normal"
    units-per-em="1000"
    panose-1="2 0 0 9 0 0 0 0 0 0"
    ascent="800"
    descent="-200"
    x-height="465"
    cap-height="610"
    bbox="-1 -288 550 813"
    underline-thickness="50"
    underline-position="-125"
    unicode-range="U+0001-20AC"
  />
<missing-glyph 
 />
    <glyph glyph-name=".notdef" 
 />
    <glyph glyph-name=".null" 
 />
    <glyph glyph-name="nonmarkingreturn" 
 />
    <glyph glyph-name="space" unicode=" " 
 />
    <glyph glyph-name="space" unicode="&#xa0;" 
 />
    <glyph glyph-name=".0015" 
d="M10 70q4 2 12.5 1.5t18 -2t18 -4t11.5 -5.5t5.5 -11.5t4 -18t2 -18t-1.5 -12.5h260q-2 4 -1.5 12.5t2 18t4 18t5.5 11.5t11.5 5.5t18 4t18 2t12.5 -1.5v130h-135v-130h-125v470h125v-130h135v130q-4 -2 -12.5 -1.5t-18 2t-18 4t-11.5 5.5t-5.5 11.5t-4 18t-2 18t1.5 12.5
h-260q2 -4 1.5 -12.5t-2 -18t-4 -18t-5.5 -11.5t-11.5 -5.5t-18 -4t-18 -2t-12.5 1.5v-470z" />
    <glyph glyph-name="exclam" unicode="!" 
d="M226 130v-130h120v130h-120zM221 335v-125h130v125h65v205q-4 -2 -12.5 -1.5t-18 2t-18 4t-11.5 5.5t-5.5 11.5t-4 18t-2 18t1.5 12.5h-120q2 -4 1.5 -12.5t-2 -18t-4 -18t-5.5 -11.5t-11.5 -5.5t-18 -4t-18 -2t-12.5 1.5v-205h65z" />
    <glyph glyph-name="quotedbl" unicode="&#x22;" 
d="M54 602v-200h130v200h-130v0zM324 602v-200h130v200h-130v0z" />
    <glyph glyph-name="numbersign" unicode="#" 
d="M119 135v-135h123v130h90v-130h127v135h69v70h-68v200h68v70h-69v135h-127v-130h-85v130h-128v-135h-69v-70h64v-200h-64v-70h69v0zM247 400h80v-190h-80v190v0z" />
    <glyph glyph-name="dollar" unicode="$" 
d="M187 1v-134h128v136h70v69l69 2v138h-68v69h-71v61h-69l-1 70h-59v141h129v-70h140v70h-69l-1 69h-70v139h-129v-139h-70v-71h-69v-138h70v-69h69v-61h60v-70l68 1v-142h-128v69h-141v-67h69q0 -19 0.5 -35.5t0.5 -35.5q3 -1 13 -1h22h22q11 0 15 -1z" />
    <glyph glyph-name="percent" unicode="%" 
d="M266 10v-65h205q-2 4 -1.5 12.5t2 18t4 18t5.5 11.5t11.5 5.5t18 4t18 2t12.5 -1.5v130q-4 -2 -12.5 -1.5t-18 2t-18 4t-11.5 5.5t-5.5 11.5t-4 18t-2 18t1.5 12.5h-205v-65h-55v-140h55zM341 145h60v-130h-60v130zM71 215v-130h60q-2 4 -1.5 12.5t2 18t4 18t5.5 11.5
q1 1 10 2.5t19.5 2.5t19.5 2t11 3q3 3 5.5 12t4 19.5t2 20t-1.5 13.5h50q-2 4 -2 13q0 10 1.5 20.5t4.5 19.5t6 12t12 6t19.5 4.5t19.5 1.5q10 0 14 -2v50q4 -2 13.5 -1.5t20 2t19.5 4t12 5.5q1 1 2.5 10t2.5 19.5t2 19.5t3 11q3 3 11.5 5.5t18 4t18 2t12.5 -1.5v130h-60
q2 -4 1.5 -12.5t-2 -18t-4 -18t-5.5 -11.5q-2 -2 -11 -3t-19.5 -2t-19.5 -2.5t-10 -2.5q-2 -2 -3 -11t-2 -19.5t-2.5 -19.5t-2.5 -10q-2 -2 -11 -3t-19.5 -2t-19.5 -2.5t-10 -2.5q-3 -3 -5.5 -11.5t-4 -18t-2 -18t1.5 -12.5q-3 1 -10.5 0.5t-15.5 -2t-15 -3.5t-9 -5
t-4.5 -10t-4 -15t-2.5 -15t1 -10q-4 2 -12.5 1.5t-18 -2t-18 -4t-11.5 -5.5q-2 -2 -3 -11t-2 -19.5t-2.5 -19.5t-2.5 -10q-3 -3 -11.5 -5.5t-18 -4t-18 -2t-12.5 1.5zM1 495q4 2 12.5 1.5t18 -2t18 -4t11.5 -5.5t5.5 -11.5t4 -18t2 -18t-1.5 -12.5h190q-2 4 -1.5 12.5t2 18
t4 18t5.5 11.5t11.5 5.5t18 4t18 2t12.5 -1.5v130q-4 -2 -12.5 -1.5t-18 2t-18 4t-11.5 5.5t-5.5 11.5t-4 18t-2 18t1.5 12.5h-190q2 -4 1.5 -12.5t-2 -18t-4 -18t-5.5 -11.5t-11.5 -5.5t-18 -4t-18 -2t-12.5 1.5v-130zM141 625h60v-130h-60v130z" />
    <glyph glyph-name="ampersand" unicode="&#x26;" 
d="M56 70q4 2 12.5 1.5t18 -2t18 -4t11.5 -5.5t5.5 -11.5t4 -18t2 -18t-1.5 -12.5h195v60h70v-60h135v65h-60v140h60v65h-270v-65h60v-135h-120v265h120q-2 4 -1.5 13.5t2 20t4 19.5t5.5 12t11.5 5.5t18 4t18 2t12.5 -1.5v130q-4 -2 -12.5 -1.5t-18 2t-18 4t-11.5 5.5
t-5.5 11.5t-4 18t-2 18t1.5 12.5h-190q2 -4 1.5 -12.5t-2 -18t-4 -18t-5.5 -11.5t-11.5 -5.5t-18 -4t-18 -2t-12.5 1.5v-135h60v-70h-60v-265zM196 540h50v-130h-50v130z" />
    <glyph glyph-name="quotesingle" unicode="'" 
d="M178 604v-200h120v200h-120v0z" />
    <glyph glyph-name="parenleft" unicode="(" 
d="M282 -66v-65h135v65h-65v140h-65v340h65v140h65v65h-135v-65h-60v-140h-65v-340h65v-140h60v0z" />
    <glyph glyph-name="parenright" unicode=")" 
d="M165 -61l1 -68h121v65h75v140h65v340h-65v137h-70v68h-126l-1 -72h66l1 -133h55v-340h-55l-1 -137h-66z" />
    <glyph glyph-name="asterisk" unicode="*" 
d="M109 216v-65h125v60h70v-60h135v65h-60v70h130v60h-130v70h60v65h-135v-60h-70v60h-125v-65h60v-70h-130v-60h130v-70h-60v0z" />
    <glyph glyph-name="plus" unicode="+" 
d="M194 252v-135h130v135h135v60h-135v135h-130v-135h-135v-60h135v0z" />
    <glyph glyph-name="comma" unicode="," 
d="M200 -63v-65h120q-2 4 -1.5 12.5t2 18t4 18t5.5 11.5t11.5 5.5t18 4t18 2t12.5 -1.5v200h-190v-135h50v-70h-50z" />
    <glyph glyph-name="minus" unicode="-" 
d="M56 303v-50h400v50h-400z" />
    <glyph glyph-name="period" unicode="." 
d="M198 130v-130h190v130h-190v0z" />
    <glyph glyph-name="slash" unicode="/" 
d="M87 -64h99l301 631v49h-108l-292 -584v-96z" />
    <glyph glyph-name="zero" unicode="0" 
d="M82 71q4 2 12.5 1.5t18 -2t18 -4t11.5 -5.5t5.5 -11.5t4 -18t2 -18t-1.5 -12.5h260q-2 4 -1.5 12.5t2 18t4 18t5.5 11.5t11.5 5.5t18 4t18 2t12.5 -1.5v470q-4 -2 -12.5 -1.5t-18 2t-18 4t-11.5 5.5t-5.5 11.5t-4 18t-2 18t1.5 12.5h-260q2 -4 1.5 -12.5t-2 -18t-4 -18
t-5.5 -11.5t-11.5 -5.5t-18 -4t-18 -2t-12.5 1.5v-470zM218 134h60v140h-60v265h130v-65h-60v-140h60v-265h-130v65z" />
    <glyph glyph-name="one" unicode="1" 
d="M249 406v-405h135v610h-135v-65h-60v-70h-135v-70h195v0z" />
    <glyph glyph-name="two" unicode="2" 
d="M98 0h400v65h-260v70h58q-2 4 -3 13.5t-1 19.5q0 11 1.5 20t4.5 12q1 1 10 2.5t19.5 2.5t19.5 2t11 3q1 1 2.5 10t2.5 19.5t2 19.5t3 11q3 3 12 5.5t19.5 4t20 2t13.5 -1.5v55h65v205q-4 -2 -12.5 -1.5t-18 2t-18 4t-11.5 5.5t-5.5 11.5t-4 18t-2 18t1.5 12.5h-260
q2 -4 1.5 -12.5t-2 -18t-4 -18t-5.5 -11.5t-11.5 -5.5t-18 -4t-18 -2t-12.5 1.5v-130h135v130h125v-205h-60q1 -3 1 -11t-1.5 -17t-4 -16.5t-5.5 -10.5q-2 -3 -9.5 -4.5t-16.5 -2.5t-18 -1q-8 0 -11 2q2 -4 3.5 -14t1.5 -22q0 -11 -1 -21t-4 -13q-2 -2 -12 -1.5t-22.5 1.5
t-23.5 1q-10 0 -11 -1q-2 -2 -2 -12t0.5 -22.5t0 -23t-1.5 -11.5q-3 -3 -12 -4t-19 -1t-19 1.5t-13 3.5v-135z" />
    <glyph glyph-name="three" unicode="3" 
d="M95 70q4 2 12.5 1.5t18 -2t18 -4t11.5 -5.5t5.5 -11.5t4 -18t2 -18t-1.5 -12.5h260q-2 4 -1.5 12.5t2 18t4 18t5.5 11.5t11.5 5.5t18 4t18 2t12.5 -1.5v205h-60v60h60v205q-4 -2 -12.5 -1.5t-18 2t-18 4t-11.5 5.5t-5.5 11.5t-4 18t-2 18t1.5 12.5h-260q2 -4 1.5 -12.5
t-2 -18t-4 -18t-5.5 -11.5t-11.5 -5.5t-18 -4t-18 -2t-12.5 1.5v-130h135v130h125v-205h-120v-60h120v-205h-125v130h-135v-130z" />
    <glyph glyph-name="four" unicode="4" 
d="M319 135v-135h140v135h65v70h-65v265h-140v-260h-125v65h50v335h-125v-335h-65v-140h265v0z" />
    <glyph glyph-name="five" unicode="5" 
d="M44 65v-65h313q-2 4 -1.5 12.5t2 18t4 18t5.5 11.5q1 1 10 2.5t19.5 2.5t19.5 2t11 3q1 1 2.5 10t2.5 19.5t2 19.5t3 11q3 3 11.5 5.5t18 4t18 2t12.5 -1.5v135h-65v60h-248v210h313v65h-453v-335h313v-135q-4 2 -12.5 1.5t-18 -2t-18 -4t-11.5 -5.5t-5.5 -12t-4 -19.5
t-2 -20t1.5 -13.5h-243z" />
    <glyph glyph-name="six" unicode="6" 
d="M95 70q4 2 12.5 1.5t18 -2t18 -4t11.5 -5.5t5.5 -11.5t4 -18t2 -18t-1.5 -12.5h260q-2 4 -1.5 12.5t2 18t4 18t5.5 11.5t11.5 5.5t18 4t18 2t12.5 -1.5v260q-4 -2 -12.5 -1.5t-18 2t-18 4t-11.5 5.5t-5.5 12t-4 19.5t-2 20t1.5 13.5h-130v65q4 -2 12.5 -1.5t18 2t18 4
t11.5 5.5q1 1 2.5 10t2.5 19.5t2 19.5t3 11q3 3 11.5 5.5t18 4t18 2t12.5 -1.5v60h-195v-130q-4 2 -13.5 1.5t-20 -2t-19.5 -4t-12 -5.5q-2 -2 -3 -11t-2 -19.5t-2.5 -19.5t-2.5 -10q-3 -3 -11.5 -5.5t-18 -4t-18 -2t-12.5 1.5v-330zM235 330h120v-260h-120v260z" />
    <glyph glyph-name="seven" unicode="7" 
d="M157 205v-205h125v205h70v130h70v140h65v135h-400v-65h260v-70h-65v-140h-60v-130h-65v0z" />
    <glyph glyph-name="eight" unicode="8" 
d="M87 70q4 2 12.5 1.5t18 -2t18 -4t11.5 -5.5t5.5 -11.5t4 -18t2 -18t-1.5 -12.5h260q-2 4 -1.5 12.5t2 18t4 18t5.5 11.5t11.5 5.5t18 4t18 2t12.5 -1.5v205h-60v60h60v205q-4 -2 -12.5 -1.5t-18 2t-18 4t-11.5 5.5t-5.5 11.5t-4 18t-2 18t1.5 12.5h-260q2 -4 1.5 -12.5
t-2 -18t-4 -18t-5.5 -11.5t-11.5 -5.5t-18 -4t-18 -2t-12.5 1.5v-205h60v-60h-60v-205zM227 270h50q-2 -4 -1.5 -12.5t2 -18t4 -18t5.5 -11.5t11.5 -5.5t18 -4t18 -2t12.5 1.5v-130h-120v200zM282 405h-55v135h120v-200h-65v65z" />
    <glyph glyph-name="nine" unicode="9" 
d="M156 60v-60h195v130q4 -2 13.5 -1.5t20 2t19.5 4t12 5.5q1 1 2.5 10t2.5 19.5t2 19.5t3 11q3 3 11.5 5.5t18 4t18 2t12.5 -1.5v330q-4 -2 -12.5 -1.5t-18 2t-18 4t-11.5 5.5t-5.5 11.5t-4 18t-2 18t1.5 12.5h-260q2 -4 1.5 -12.5t-2 -18t-4 -18t-5.5 -11.5t-11.5 -5.5
t-18 -4t-18 -2t-12.5 1.5v-260q4 2 12.5 1.5t18 -2t18 -4t11.5 -5.5t5.5 -12t4 -19.5t2 -20t-1.5 -13.5h120v-70h-50q2 -4 1.5 -13.5t-2 -20t-4 -19.5t-5.5 -12t-11.5 -5.5t-18 -4t-18 -2t-12.5 1.5zM226 540h120v-260h-120v260z" />
    <glyph glyph-name="colon" unicode=":" 
d="M193 139v-130h190v130h-190v0zM193 479v-130h190v130h-190v0z" />
    <glyph glyph-name="semicolon" unicode=";" 
d="M198 -66v-65h120q-2 4 -1.5 12.5t2 18t4 18t5.5 11.5t11.5 5.5t18 4t18 2t12.5 -1.5v200h-190v-135h50v-70h-50zM198 479v-130h190v130h-190z" />
    <glyph glyph-name="less" unicode="&#x3c;" 
d="M494 0h-102l-301 300l301 310h102v-42l-267 -269l267 -262v-37z" />
    <glyph glyph-name="equal" unicode="=" 
d="M99 283v-60h401v60h-401v0zM99 422v-60h401v60h-401v0z" />
    <glyph glyph-name="greater" unicode="&#x3e;" 
d="M92 0h102l301 300l-301 310h-102v-42l259 -261l-259 -265v-42z" />
    <glyph glyph-name="question" unicode="?" 
d="M211 130v-130h120v130h-120zM211 335v-125h125v120q4 -2 13.5 -1.5t20 2t19.5 4t12 5.5q1 1 2.5 10t2.5 19.5t2 19.5t3 11q3 3 11.5 5.5t18 4t18 2t12.5 -1.5v130q-4 -2 -12.5 -1.5t-18 2t-18 4t-11.5 5.5t-5.5 11.5t-4 18t-2 18t1.5 12.5h-260q2 -4 1.5 -12.5t-2 -18
t-4 -18t-5.5 -11.5t-11.5 -5.5t-18 -4t-18 -2t-12.5 1.5v-130h135v130h125v-130q-4 2 -12.5 1.5t-18 -2t-18 -4t-11.5 -5.5t-5.5 -12t-4 -19.5t-2 -20t1.5 -13.5h-50z" />
    <glyph glyph-name="at" unicode="@" 
d="M7 71q4 2 12.5 1.5t18 -2t18 -4t11.5 -5.5t5.5 -11.5t4 -18t2 -18t-1.5 -12.5h470v65h-400v481h265v-141h-140v-70h-55v-130h55v-65h275v404h-66l-4 66h-406v-65l-64 -1v-474zM359 335h72v-130h-72v130z" />
    <glyph glyph-name="A" unicode="A" 
d="M59 470v-470h135v200h130v-200h135v470q-4 -2 -12.5 -1.5t-18 2t-18 4t-11.5 5.5q-2 1 -3 10t-2 19.5t-2.5 19.5t-2.5 11q-2 1 -11 2.5t-19.5 2.5t-19.5 2t-10 3q-3 3 -5.5 11.5t-4 18t-2 18t1.5 12.5h-120q2 -4 1.5 -12.5t-2 -18t-4 -18t-5.5 -11.5q-2 -2 -11 -3
t-19.5 -2t-19.5 -2.5t-10 -2.5q-2 -2 -3 -11t-2 -19.5t-2.5 -19.5t-2.5 -10q-3 -3 -11.5 -5.5t-18 -4t-18 -2t-12.5 1.5zM199 470h120v-190h-120v190z" />
    <glyph glyph-name="B" unicode="B" 
d="M62 610v-610h330q-2 4 -1.5 12.5t2 18t4 18t5.5 11.5t11.5 5.5t18 4t18 2t12.5 -1.5v205h-60v60h60v205q-4 -2 -12.5 -1.5t-18 2t-18 4t-11.5 5.5t-5.5 11.5t-4 18t-2 18t1.5 12.5h-330zM202 270h120v-200h-120v200zM202 540h120v-200h-120v200z" />
    <glyph glyph-name="C" unicode="C" 
d="M59 70q4 2 12.5 1.5t18 -2t18 -4t11.5 -5.5t5.5 -11.5t4 -18t2 -18t-1.5 -12.5h260q-2 4 -1.5 12.5t2 18t4 18t5.5 11.5t11.5 5.5t18 4t18 2t12.5 -1.5v130h-135v-130h-125v470h125v-130h135v130q-4 -2 -12.5 -1.5t-18 2t-18 4t-11.5 5.5t-5.5 11.5t-4 18t-2 18t1.5 12.5
h-260q2 -4 1.5 -12.5t-2 -18t-4 -18t-5.5 -11.5t-11.5 -5.5t-18 -4t-18 -2t-12.5 1.5v-470z" />
    <glyph glyph-name="D" unicode="D" 
d="M54 610v-610h260q-2 4 -1.5 12.5t2 18t4 18t5.5 11.5q1 1 10 2.5t19.5 2.5t19.5 2t11 3q1 1 2.5 10t2.5 19.5t2 19.5t3 11q3 3 11.5 5.5t18 4t18 2t12.5 -1.5v330q-4 -2 -12.5 -1.5t-18 2t-18 4t-11.5 5.5q-2 1 -3 10t-2 19.5t-2.5 19.5t-2.5 11q-2 1 -11 2.5t-19.5 2.5
t-19.5 2t-10 3q-3 3 -5.5 11.5t-4 18t-2 18t1.5 12.5h-260zM194 540h50q-2 -4 -1.5 -12.5t2 -18t4 -18t5.5 -11.5t11.5 -5.5t18 -4t18 -2t12.5 1.5v-330q-4 2 -12.5 1.5t-18 -2t-18 -4t-11.5 -5.5t-5.5 -11.5t-4 -18t-2 -18t1.5 -12.5h-50v470z" />
    <glyph glyph-name="E" unicode="E" 
d="M59 610v-610h400v65h-260v210h190v60h-190v210h260v65h-400v0z" />
    <glyph glyph-name="F" unicode="F" 
d="M59 610v-610h135v275h195v60h-190v210h260v65h-400v0z" />
    <glyph glyph-name="G" unicode="G" 
d="M59 70q4 2 12.5 1.5t18 -2t18 -4t11.5 -5.5t5.5 -11.5t4 -18t2 -18t-1.5 -12.5h330v270h-200v-65h60v-135h-120v470h125v-130h135v130q-4 -2 -12.5 -1.5t-18 2t-18 4t-11.5 5.5t-5.5 11.5t-4 18t-2 18t1.5 12.5h-260q2 -4 1.5 -12.5t-2 -18t-4 -18t-5.5 -11.5t-11.5 -5.5
t-18 -4t-18 -2t-12.5 1.5v-470z" />
    <glyph glyph-name="H" unicode="H" 
d="M59 610v-610h135v270h130v-270h135v610h-135v-270h-130v270h-135v0z" />
    <glyph glyph-name="I" unicode="I" 
d="M124 65v-65h260v65h-60v480h60v65h-260v-65h60v-480h-60v0z" />
    <glyph glyph-name="J" unicode="J" 
d="M59 70q4 2 12.5 1.5t18 -2t18 -4t11.5 -5.5t5.5 -11.5t4 -18t2 -18t-1.5 -12.5h260q-2 4 -1.5 12.5t2 18t4 18t5.5 11.5t11.5 5.5t18 4t18 2t12.5 -1.5v540h-135v-540h-130v130h-135v-130z" />
    <glyph glyph-name="K" unicode="K" 
d="M56 610v-610h135v270h60v-135h70v-135h135v135h-65v140h-65v60h65v140h65v135h-135v-135h-70v-135h-60v270h-135v0z" />
    <glyph glyph-name="L" unicode="L" 
d="M59 610v-610h400v65h-265v545h-135v0z" />
    <glyph glyph-name="M" unicode="M" 
d="M44 610v-610h135v405h55v70h-55v135h-135zM379 400v-400h135v610h-135v-130q-4 2 -13.5 1.5t-20 -2t-19.5 -4t-12 -5.5q-2 -2 -3 -11t-2 -19.5t-2.5 -19.5t-2.5 -10q-3 -3 -11.5 -5.5t-18 -4t-18 -2t-12.5 1.5v-190h65v190h70z" />
    <glyph glyph-name="N" unicode="N" 
d="M56 610v-610h135v350l200 -176v-174h135v610h-135v-301l-200 191v110h-135z" />
    <glyph glyph-name="O" unicode="O" 
d="M75 69q4 2 12.5 1.5t18 -2t18 -4t11.5 -5.5t5.5 -11.5t4 -18t2 -18t-1.5 -12.5h260q-2 4 -1.5 12.5t2 18t4 18t5.5 11.5t11.5 5.5t18 4t18 2t12.5 -1.5v470q-4 -2 -12.5 -1.5t-18 2t-18 4t-11.5 5.5t-5.5 11.5t-4 18t-2 18t1.5 12.5h-260q2 -4 1.5 -12.5t-2 -18t-4 -18
t-5.5 -11.5t-11.5 -5.5t-18 -4t-18 -2t-12.5 1.5v-470zM215 539h120v-470h-120v470z" />
    <glyph glyph-name="P" unicode="P" 
d="M57 615v-615h139v275h200v60h65v209l-65 1v70h-339v0zM196 544h129v-209h-129v209v0z" />
    <glyph glyph-name="Q" unicode="Q" 
d="M247 0q-2 -4 -1.5 -13.5t2 -20t4 -19.5t5.5 -12q1 -2 10 -3t19.5 -2t19.5 -2.5t11 -2.5q3 -3 5.5 -11.5t4 -18t2 -18t-1.5 -12.5h130v65h-60v140h60v475q-4 -2 -12.5 -1.5t-18 2t-18 4t-11.5 5.5t-5.5 11.5t-4 18t-2 18t1.5 12.5h-260q2 -4 1.5 -12.5t-2 -18t-4 -18
t-5.5 -11.5t-11.5 -5.5t-18 -4t-18 -2t-12.5 1.5v-470q4 2 12.5 1.5t18 -2t18 -4t11.5 -5.5t5.5 -12t4 -19.5t2 -20t-1.5 -13.5h120zM197 545h120v-470h-120v470z" />
    <glyph glyph-name="R" unicode="R" 
d="M79 610v-610h135v270h55q-2 -4 -1.5 -12.5t2 -18t4 -18t5.5 -11.5t12 -5.5t19.5 -4t20 -2t13.5 1.5v-200h135v205h-60v130h60v205q-4 -2 -12.5 -1.5t-18 2t-18 4t-11.5 5.5t-5.5 11.5t-4 18t-2 18t1.5 12.5h-330zM219 540h120v-200h-120v200z" />
    <glyph glyph-name="S" unicode="S" 
d="M51 70q4 2 12.5 1.5t18 -2t18 -4t11.5 -5.5t5.5 -11.5t4 -18t2 -18t-1.5 -12.5h260q-2 4 -1.5 12.5t2 18t4 18t5.5 11.5t11.5 5.5t18 4t18 2t12.5 -1.5v130q-4 -2 -12.5 -1.5t-18 2t-18 4t-11.5 5.5q-2 1 -3 10t-2 19.5t-2.5 19.5t-2.5 11q-3 3 -12 5.5t-19.5 4t-20 2
t-13.5 -1.5v50q-4 -2 -14 -2q-9 0 -19.5 1.5t-19.5 4.5t-12 6t-6 12t-4.5 19.5t-1.5 19.5q0 10 2 14h-50v135h125v-60h135v60q-4 -2 -12.5 -1.5t-18 2t-18 4t-11.5 5.5t-5.5 11.5t-4 18t-2 18t1.5 12.5h-260q2 -4 1.5 -12.5t-2 -18t-4 -18t-5.5 -11.5t-11.5 -5.5t-18 -4
t-18 -2t-12.5 1.5v-130q4 2 12.5 1.5t18 -2t18 -4t11.5 -5.5q1 -2 2.5 -11t2.5 -19.5t2 -19.5t3 -10q3 -3 11.5 -5.5t18 -4t18 -2t12.5 1.5q-2 -3 -1 -10.5t2.5 -15.5t4 -15t4.5 -9t9 -4.5t15 -4t15.5 -2.5t10.5 1q-2 -4 -1.5 -12.5t2 -18t4 -18t5.5 -11.5t11.5 -5.5t18 -4
t18 -2t12.5 1.5v-130h-125v60h-135v-60z" />
    <glyph glyph-name="T" unicode="T" 
d="M194 545v-545h130v545h135v65h-400v-65h135v0z" />
    <glyph glyph-name="U" unicode="U" 
d="M56 70q4 2 12.5 1.5t18 -2t18 -4t11.5 -5.5t5.5 -11.5t4 -18t2 -18t-1.5 -12.5h260q-2 4 -1.5 12.5t2 18t4 18t5.5 11.5t11.5 5.5t18 4t18 2t12.5 -1.5v540h-135v-540h-130v540h-135v-540z" />
    <glyph glyph-name="V" unicode="V" 
d="M54 140q4 2 12.5 1.5t18 -2t18 -4t11.5 -5.5q1 -2 2.5 -11t2.5 -19.5t2 -19.5t3 -10q1 -2 10 -3t19.5 -2t19.5 -2.5t11 -2.5q3 -3 5.5 -11.5t4 -18t2 -18t-1.5 -12.5h120q-2 4 -1.5 12.5t2 18t4 18t5.5 11.5q1 1 10 2.5t19.5 2.5t19.5 2t11 3q1 1 2.5 10t2.5 19.5t2 19.5
t3 11q3 3 11.5 5.5t18 4t18 2t12.5 -1.5v470h-135v-470h-130v470h-135v-470z" />
    <glyph glyph-name="W" unicode="W" 
d="M119 205v-205h130v205h65v195h-65v-190h-60v400h-135v-405h65v0zM324 205v-205h135v205h65v405h-135v-405h-65v0z" />
    <glyph glyph-name="X" unicode="X" 
d="M56 200v-200h135v270h55q-2 -4 -1.5 -12.5t2 -18t4 -18t5.5 -11.5t12 -5.5t19.5 -4t20 -2t13.5 1.5v-200h135v200q-4 -2 -12.5 -1.5t-18 2t-18 4t-11.5 5.5q-2 1 -3 10t-2 19.5t-2.5 19.5t-2.5 11q-3 3 -11.5 5.5t-18 4t-18 2t-12.5 -1.5v120q4 -2 12.5 -1.5t18 2t18 4
t11.5 5.5q1 1 2.5 10t2.5 19.5t2 19.5t3 11q3 3 11.5 5.5t18 4t18 2t12.5 -1.5v130h-135v-200h-70v65h-60v135h-135v-130q4 2 12.5 1.5t18 -2t18 -4t11.5 -5.5q1 -2 2.5 -11t2.5 -19.5t2 -19.5t3 -10q3 -3 11.5 -5.5t18 -4t18 -2t12.5 1.5v-120q-4 2 -12.5 1.5t-18 -2
t-18 -4t-11.5 -5.5q-2 -2 -3 -11t-2 -19.5t-2.5 -19.5t-2.5 -10q-3 -3 -11.5 -5.5t-18 -4t-18 -2t-12.5 1.5z" />
    <glyph glyph-name="Y" unicode="Y" 
d="M189 275v-275h130v275h70v60h65v275h-135v-270h-130v270h-135v-275h65v-60h70v0z" />
    <glyph glyph-name="Z" unicode="Z" 
d="M56 200v-200h400v65h-260v140h50q-2 4 -2 13q0 10 1.5 20.5t4.5 19.5t6 12t12 6t19.5 4.5t19.5 1.5q10 0 14 -2v50q4 -2 13.5 -1.5t20 2t19.5 4t12 5.5q1 1 2.5 10t2.5 19.5t2 19.5t3 11q3 3 11.5 5.5t18 4t18 2t12.5 -1.5v200h-400v-65h260v-135q-4 2 -12.5 1.5t-18 -2
t-18 -4t-11.5 -5.5t-5.5 -11.5t-4 -18t-2 -18t1.5 -12.5q-3 1 -10.5 0.5t-15.5 -2t-15 -3.5t-9 -5t-4.5 -9.5t-4 -14.5t-2.5 -15.5t1 -10.5q-4 2 -12.5 1.5t-18 -2t-18 -4t-11.5 -5.5q-2 -2 -3 -11t-2 -19.5t-2.5 -19.5t-2.5 -10q-3 -3 -11.5 -5.5t-18 -4t-18 -2t-12.5 1.5z
" />
    <glyph glyph-name="bracketleft" unicode="[" 
d="M121 623v-798h269v55h-130v678h130v65h-269v0z" />
    <glyph glyph-name="backslash" unicode="\" 
d="M372 -60l110 -3l-2 53l-314 625l-84 2v-99z" />
    <glyph glyph-name="bracketright" unicode="]" 
d="M166 -132v-55h260v810h-260v-65h120v-690h-120v0z" />
    <glyph glyph-name="asciicircum" unicode="^" 
d="M208 717v-60v0h-60v0v-60v0h-60v0v-60v0h120v0v60h120v0v-60v0h108v0v60v0h-48v0v60v0h-60v0v60v0h-120v0z" />
    <glyph glyph-name="underscore" unicode="_" 
d="M0 -158v-50h550v50h-550z" />
    <glyph glyph-name="grave" unicode="`" 
d="M282 589v-69h140v69h-70v140h-199v-70h70v-70h59z" />
    <glyph glyph-name="a" unicode="a" 
d="M59 70q4 2 12.5 1.5t18 -2t18 -4t11.5 -5.5t5.5 -11.5t4 -18t2 -18t-1.5 -12.5h330v400q-4 -2 -12.5 -1.5t-18 2t-18 4t-11.5 5.5t-5.5 11.5t-4 18t-2 18t1.5 12.5h-260v-65h190v-130h-190q2 -4 1.5 -13.5t-2 -20t-4 -19.5t-5.5 -12t-11.5 -5.5t-18 -4t-18 -2t-12.5 1.5
v-130zM199 200h120v-130h-120v130z" />
    <glyph glyph-name="b" unicode="b" 
d="M97 610v-610h330q-2 4 -1.5 12.5t2 18t4 18t5.5 11.5t11.5 5.5t18 4t18 2t12.5 -1.5v330h-66v75h-199v135h-135zM237 400h120v-330h-120v330z" />
    <glyph glyph-name="c" unicode="c" 
d="M56 70q4 2 12.5 1.5t18 -2t18 -4t11.5 -5.5t5.5 -11.5t4 -18t2 -18t-1.5 -12.5h260q-2 4 -1.5 12.5t2 18t4 18t5.5 11.5t11.5 5.5t18 4t18 2t12.5 -1.5v60h-135v-60h-125v330h125v-60h135v60q-4 -2 -12.5 -1.5t-18 2t-18 4t-11.5 5.5t-5.5 11.5t-4 18t-2 18t1.5 12.5
h-260q2 -4 1.5 -12.5t-2 -18t-4 -18t-5.5 -11.5t-11.5 -5.5t-18 -4t-18 -2t-12.5 1.5v-330z" />
    <glyph glyph-name="d" unicode="d" 
d="M59 70q4 2 12.5 1.5t18 -2t18 -4t11.5 -5.5t5.5 -11.5t4 -18t2 -18t-1.5 -12.5h330v610h-135v-135h-195q2 -4 1.5 -13.5t-2 -20t-4 -19.5t-5.5 -12t-11.5 -5.5t-18 -4t-18 -2t-12.5 1.5v-330zM199 400h120v-330h-120v330z" />
    <glyph glyph-name="e" unicode="e" 
d="M51 70q4 2 12.5 1.5t18 -2t18 -4t11.5 -5.5t5.5 -11.5t4 -18t2 -18t-1.5 -12.5h260v65h-190v140h260v195q-4 -2 -12.5 -1.5t-18 2t-18 4t-11.5 5.5t-5.5 11.5t-4 18t-2 18t1.5 12.5h-260q2 -4 1.5 -12.5t-2 -18t-4 -18t-5.5 -11.5t-11.5 -5.5t-18 -4t-18 -2t-12.5 1.5
v-330zM191 400h120v-120h-120v120z" />
    <glyph glyph-name="f" unicode="f" 
d="M124 275v-275h130v275h209v61h-208v211h208v67h-267v-68h-72v-211h-70v-60h70v0z" />
    <glyph glyph-name="g" unicode="g" 
d="M62 -140v-55h335v55h65v615h-330q2 -4 1.5 -12.5t-2 -18t-4 -18t-5.5 -11.5t-11.5 -5.5t-18 -4t-18 -2t-12.5 1.5v-330q4 2 12.5 1.5t18 -2t18 -4t11.5 -5.5t5.5 -12t4 -19.5t2 -20t-1.5 -13.5h190v-140h-260zM202 405h120v-330h-120v330z" />
    <glyph glyph-name="h" unicode="h" 
d="M62 610v-610h135v400h130v-400h135v400q-4 -2 -12.5 -1.5t-18 2t-18 4t-11.5 5.5t-5.5 12t-4 19.5t-2 20t1.5 13.5h-195v135h-135z" />
    <glyph glyph-name="i" unicode="i" 
d="M59 65v-65h400v65h-135v405h-265v-65h130v-340h-130v0zM199 660v-110h120v110h-120v0z" />
    <glyph glyph-name="j" unicode="j" 
d="M59 -155v-55h265v55h65v615h-260v-65h120v-550h-190v0zM259 650v-110h130v110h-130v0z" />
    <glyph glyph-name="k" unicode="k" 
d="M62 610v-610h135v200h55q-2 -4 -1.5 -12.5t2 -18t4 -18t5.5 -11.5t12 -5.5t19.5 -4t20 -2t13.5 1.5v-130h135v130q-4 -2 -12.5 -1.5t-18 2t-18 4t-11.5 5.5q-2 1 -3 10t-2 19.5t-2.5 19.5t-2.5 11q-3 3 -11.5 5.5t-18 4t-18 2t-12.5 -1.5v65h65v60h65v135h-135v-135h-65
q2 -3 1.5 -11t-2 -17t-4 -16.5t-5.5 -10.5t-11 0t-16.5 7.5t-16.5 8.5t-11 4v310h-135z" />
    <glyph glyph-name="l" unicode="l" 
d="M59 65v-65h400v65h-135v545h-265v-65h130v-480h-130v0z" />
    <glyph glyph-name="m" unicode="m" 
d="M59 470v-470h135v400h60v-330h70v330h70v-400h135v400h-65v70h-405v0z" />
    <glyph glyph-name="n" unicode="n" 
d="M59 470v-470h135v400h130v-400h135v400l-65 7v63h-335v0z" />
    <glyph glyph-name="o" unicode="o" 
d="M59 70q4 2 12.5 1.5t18 -2t18 -4t11.5 -5.5t5.5 -11.5t4 -18t2 -18t-1.5 -12.5h260q-2 4 -1.5 12.5t2 18t4 18t5.5 11.5t11.5 5.5t18 4t18 2t12.5 -1.5v330q-4 -2 -12.5 -1.5t-18 2t-18 4t-11.5 5.5t-5.5 11.5t-4 18t-2 18t1.5 12.5h-260q2 -4 1.5 -12.5t-2 -18t-4 -18
t-5.5 -11.5t-11.5 -5.5t-18 -4t-18 -2t-12.5 1.5v-330zM199 400h120v-330h-120v330z" />
    <glyph glyph-name="p" unicode="p" 
d="M56 470v-664h134v193h193q-2 4 -1.5 13.5t2 19.5t4 19t5.5 13q3 3 11 5.5t17.5 4t17.5 1.5q9 0 13 -1v326q-4 -2 -12.5 -1.5t-18 2t-17.5 4t-11 5.5t-5.5 11.5t-4 18t-2 18t1.5 12.5h-327zM195 400h118v-326h-118v326z" />
    <glyph glyph-name="q" unicode="q" 
d="M324 1v-194h135v664h-327q1 -4 2 -15t1 -23t-1 -21.5t-4 -9.5q-4 0 -13.5 -0.5t-20 -1t-20.5 -0.5q-9 0 -13 2v-327q4 2 14 3t21.5 0.5t21.5 -1.5t13 -4t4 -13.5t0 -22t-2.5 -22t-2.5 -14.5h192zM201 402h119v-327h-119v327z" />
    <glyph glyph-name="r" unicode="r" 
d="M62 470v-470h135v276l60 1l1 58h204v135h-135l1 -63h-70l-2 -72h-59v135h-135z" />
    <glyph glyph-name="s" unicode="s" 
d="M62 65v-65h330q-2 4 -1.5 12.5t2 18t4 18t5.5 11.5t11.5 5.5t18 4t18 2t12.5 -1.5v130q-4 -2 -12.5 -1.5t-18 2t-18 4t-11.5 5.5t-5.5 12t-4 19.5t-2 20t1.5 13.5h-190v130h260v65h-330q2 -4 1.5 -12.5t-2 -18t-4 -18t-5.5 -11.5t-11.5 -5.5t-18 -4t-18 -2t-12.5 1.5
v-120q4 2 12.5 1.5t18 -2t18 -4t11.5 -5.5t5.5 -12t4 -19.5t2 -20t-1.5 -13.5h190v-140h-260z" />
    <glyph glyph-name="t" unicode="t" 
d="M124 70q4 2 13.5 1.5t20 -2t19.5 -4t12 -5.5t5.5 -11.5t4 -18t2 -18t-1.5 -12.5h260v65h-200v340h200v70h-205v135h-130v-135h-65v-70h65v-335z" />
    <glyph glyph-name="u" unicode="u" 
d="M59 70q4 2 12.5 1.5t18 -2t18 -4t11.5 -5.5t5.5 -11.5t4 -18t2 -18t-1.5 -12.5h330v470h-135v-400h-130v400h-135v-400z" />
    <glyph glyph-name="v" unicode="v" 
d="M59 140q4 2 12.5 1.5t18 -2t18 -4t11.5 -5.5q1 -2 2.5 -11t2.5 -19.5t2 -19.5t3 -10q1 -2 10 -3t19.5 -2t19.5 -2.5t11 -2.5q3 -3 5.5 -11.5t4 -18t2 -18t-1.5 -12.5h120q-2 4 -1.5 12.5t2 18t4 18t5.5 11.5q1 1 10 2.5t19.5 2.5t19.5 2t11 3q1 1 2.5 10t2.5 19.5t2 19.5
t3 11q3 3 11.5 5.5t18 4t18 2t12.5 -1.5v330h-135v-330h-130v330h-135v-330z" />
    <glyph glyph-name="w" unicode="w" 
d="M113 133v-133h129v133h64v263h-64v-257h-59v326h-135v-332h65v0zM316 133v-133h134v133h64v332h-133v-332h-65v0z" />
    <glyph glyph-name="x" unicode="x" 
d="M59 130v-130h135v130h130v-130h135v130q-4 -2 -12.5 -1.5t-18 2t-18 4t-11.5 5.5q-2 1 -3 10t-2 19.5t-2.5 19.5t-2.5 11q-3 3 -11.5 5.5t-18 4t-18 2t-12.5 -1.5v65h65v60h65v135h-135v-130h-130v130h-135v-135h65v-60h65v-65q-4 2 -12.5 1.5t-18 -2t-18 -4t-11.5 -5.5
q-2 -2 -3 -11t-2 -19.5t-2.5 -19.5t-2.5 -10q-3 -3 -11.5 -5.5t-18 -4t-18 -2t-12.5 1.5z" />
    <glyph glyph-name="y" unicode="y" 
d="M22 -141v-55h265v50q4 -2 13.5 -1.5t20 2t19.5 4t12 5.5q1 1 2.5 10t2.5 19.5t2 19.5t3 11q3 3 12 5.5t19.5 4t20 2t13.5 -1.5v135h65v405h-135v-400h-130v400h-135v-400q4 2 12.5 1.5t18 -2t18 -4t11.5 -5.5t5.5 -12t4 -19.5t2 -20t-1.5 -13.5h120v-70h-55v-70h-205z
" />
    <glyph glyph-name="z" unicode="z" 
d="M59 130v-130h400v65h-260v70h50q-2 4 -1.5 13.5t2 20t4 19.5t5.5 12q1 1 10 2.5t19.5 2.5t19.5 2t11 3q1 1 2.5 10t2.5 19.5t2 19.5t3 11q3 3 12 5.5t19.5 4t20 2t13.5 -1.5v55h65v135h-400v-65h260v-70h-60q1 -3 1 -11t-1.5 -17t-4 -16.5t-5.5 -10.5q-2 -3 -9 -5.5
t-15 -4t-15.5 -2t-10.5 1.5q2 -4 1.5 -12.5t-2 -18t-4 -18t-5.5 -11.5q-2 -2 -11 -3t-19.5 -2t-19.5 -2.5t-10 -2.5q-2 -2 -3 -11t-2 -19.5t-2.5 -19.5t-2.5 -10q-3 -3 -11.5 -5.5t-18 -4t-18 -2t-12.5 1.5z" />
    <glyph glyph-name="braceleft" unicode="{" 
d="M240 -47v-65h135v65h-65v205h-68v75h-57v65h60v65h65v199h65v65h-135v-65h-60v-199h-70v-65h-65v-65h66v-75h69v-205h60z" />
    <glyph glyph-name="bar" unicode="|" 
d="M228 611v-810h120v810h-120v0z" />
    <glyph glyph-name="braceright" unicode="}" 
d="M101 -61v-65h139v70h75v200h72v80h63v65h-65v76h-70v200h-77v65h-139v-65h71v-200h78l2 -76h60v-65h-59v-75h-79v-210h-71z" />
    <glyph glyph-name="asciitilde" unicode="~" 
d="M1 557v-134h61v65h67v68h77v-68h60v-65h216v65h59v135h-60v-63h-80v-67h-60v68h-80v71h-195v-75h-65z" />
    <glyph glyph-name="tilde" unicode="&#x2dc;" 
d="M1 557v-134h61v65h67v68h77v-68h60v-65h216v65h59v135h-60v-63h-80v-67h-60v68h-80v71h-195v-75h-65z" />
    <glyph glyph-name="sf256" 
 />
    <glyph glyph-name="sf260" 
d="M0 479v-480h120v400h160v-400h152q0 82 1.5 150t-2.5 122.5t-18 94.5t-44 67t-80.5 40.5t-128.5 13.5q-9 0 -32 -1.5t-48.5 -3t-48 -2.5t-31.5 -1z" />
    <glyph glyph-name="sf264" 
d="M6 236q0 -62 6.5 -106t26.5 -72.5t58.5 -41.5t103.5 -13t103.5 13t59 41.5t26.5 72.5t6 106t-6 106t-26.5 72t-59 41t-103.5 13t-103.5 -13t-58.5 -41t-26.5 -72t-6.5 -106zM164 386h75v-300h-75v300z" />
    <glyph glyph-name="sf265" 
d="M8 417v-705q6 0 17 2.5t23 7t22 9.5t13 11q6 6 16 28t21.5 47t21.5 47t16 28t28 17t47 23t47 22t28 13q8 6 21 17t25 23t20.5 22t8.5 13t1 21t2.5 42t2.5 48.5t1 38.5t-1 38t-2.5 48t-2.5 42.5t-1 21.5q-3 8 -12 19.5t-20.5 23t-23 20.5t-19.5 12q-3 0 -21.5 1t-42.5 2.5
t-48 2.5t-38 1q-9 0 -30 -1t-45 -2.5t-45.5 -2.5t-29.5 -1zM158 342h75v-300h-75v300z" />
    <glyph glyph-name="sf259" 
d="M69 448v-450h75l3 372l109 -297l150 300v-375h143q0 15 -1.5 45t-4.5 67t-6.5 78t-6.5 77.5t-6 65.5t-5 42q0 8 -8.5 21t-20.5 25t-25 20.5t-21 8.5q-3 0 -25.5 1t-52 2.5t-60 2.5t-50.5 1q-11 0 -37.5 -1t-56 -2.5t-56 -2.5t-37.5 -1z" />
    <glyph glyph-name="sf261" 
d="M10 610v-610h135v311q3 0 11 4t16.5 8t16.5 6.5t11 0.5t5.5 -9t4 -15t2 -15.5t-1.5 -10.5q4 2 12.5 1.5t18 -2t18 -4t11.5 -5.5q1 -2 2.5 -11t2.5 -19.5t2 -19.5t3 -10q3 -3 12 -5.5t19.5 -4t20 -2t13.5 1.5v-200h135v610h-135v-270h-65q2 4 1.5 12.5t-2 18t-4 18
t-5.5 11.5q-2 1 -11 2.5t-19.5 2.5t-19.5 2t-10 3q-3 3 -5.5 12t-4 19.5t-2 20t1.5 13.5h-55v135h-135z" />
    <glyph glyph-name="sf263" 
d="M7 457v-457h102v233q2 0 8 3t12.5 6t12.5 5t8 0t4 -6.5t3 -10.5t1 -12q0 -5 -1 -8q3 1 9 1q7 0 14 -1.5t13.5 -3.5t8.5 -4q1 -1 2 -8t2 -14.5t2 -14.5t2 -8q3 -2 9.5 -4t14 -3t15 -1.5t10.5 1.5v-150h101v457h-101v-202h-49q1 3 1 9q0 7 -1.5 14t-3.5 13.5t-4 8.5
q-1 1 -8 2t-14.5 1.5t-14.5 1.5t-8 2q-2 3 -4 9.5t-3 14.5t-1.5 15t1.5 10h-41v101h-102z" />
    <glyph glyph-name="sf262" 
d="M7 457v-457h102v304h41v52h-41v101h-102zM259 300v-300h101v457h-101v-97q-3 1 -11 1q-7 0 -14.5 -1.5t-14 -3.5t-9.5 -4q-1 -1 -2 -8t-2 -14.5t-2 -14.5t-2 -8q-2 -2 -8.5 -4t-13.5 -3t-13.5 -1.5t-9.5 1.5v-143h49v143h53z" />
    <glyph glyph-name="sf266" 
d="M10 130v-130h135v130h130v-130h135v130q-4 -2 -12.5 -1.5t-18 2t-18 4t-11.5 5.5q-2 1 -3 10t-2 19.5t-2.5 19.5t-2.5 11q-3 3 -11.5 5.5t-18 4t-18 2t-12.5 -1.5v65h65v60h65v135h-135v-130h-130v130h-135v-135h65v-60h65v-65q-4 2 -12.5 1.5t-18 -2t-18 -4t-11.5 -5.5
q-2 -2 -3 -11t-2 -19.5t-2.5 -19.5t-2.5 -10q-3 -3 -11.5 -5.5t-18 -4t-18 -2t-12.5 1.5z" />
    <glyph glyph-name="sf267" 
d="M6 -139v-55h265v50q4 -2 13.5 -1.5t20 2t19.5 4t12 5.5q1 1 2.5 10t2.5 19.5t2 19.5t3 11q3 3 12 5.5t19.5 4t20 2t13.5 -1.5v135h65v405h-135v-400h-130v400h-135v-400q4 2 12.5 1.5t18 -2t18 -4t11.5 -5.5t5.5 -12t4 -19.5t2 -20t-1.5 -13.5h120v-70h-55v-70h-205z" />
    <glyph glyph-name="sf268" 
d="M145 4v-130h130v130q4 -2 13.5 -1.5t20 2t19.5 4t12 5.5q1 1 2.5 10t2.5 19.5t2 19.5t3 11q3 3 11.5 5.5t18 4t18 2t12.5 -1.5v130q-4 -2 -12.5 -1.5t-18 2t-18 4t-11.5 5.5q-2 1 -3 10t-2 19.5t-2.5 19.5t-2.5 11q-3 3 -12 5.5t-19.5 4t-20 2t-13.5 -1.5v50
q-4 -2 -14 -2q-9 0 -19.5 1.5t-19.5 4.5t-12 6t-6 12t-4.5 19.5t-1.5 19.5q0 10 2 14h-50v135h125v-60h135v60q-4 -2 -12.5 -1.5t-18 2t-18 4t-11.5 5.5q-2 1 -3 10t-2 19.5t-2.5 19.5t-2.5 11q-3 3 -12 5.5t-19.5 4t-20 2t-13.5 -1.5v90h-130v-90q-4 2 -13.5 1.5t-20 -2
t-19.5 -4t-12 -5.5q-2 -2 -3 -11t-2 -19.5t-2.5 -19.5t-2.5 -10q-3 -3 -11.5 -5.5t-18 -4t-18 -2t-12.5 1.5v-130q4 2 12.5 1.5t18 -2t18 -4t11.5 -5.5q1 -2 2.5 -11t2.5 -19.5t2 -19.5t3 -10q3 -3 11.5 -5.5t18 -4t18 -2t12.5 1.5q-2 -3 -1 -10t2.5 -15t4 -15t4.5 -10t9 -5
t15 -3.5t15.5 -2t10.5 0.5q-2 -4 -1.5 -12.5t2 -18t4 -18t5.5 -11.5t11.5 -5.5t18 -4t18 -2t12.5 1.5v-130h-125v60h-135v-60q4 2 12.5 1.5t18 -2t18 -4t11.5 -5.5q1 -2 2.5 -11t2.5 -19.5t2 -19.5t3 -10q3 -3 12 -5.5t19.5 -4t20 -2t13.5 1.5z" />
    <glyph glyph-name="sf269" 
d="M10 810v-810h260v55h-130v690h130v65h-260v0z" />
    <glyph glyph-name="sf270" 
d="M56 603v-200h130v200h-130v0zM326 603v-200h130v200h-130v0z" />
    <glyph glyph-name="acute" unicode="&#xb4;" 
d="M292 589v-69h-140v69h70v140h199v-70h-70v-70h-59z" />
    <glyph glyph-name="degree" unicode="&#xb0;" 
d="M146 649v-63v0h-67v0v-127v0h67v0v-63v0h271v0v63v0h63v0v127v0h-63v0v63v0h-271v0zM354 586v-127h-139v127h139z" />
    <glyph glyph-name="section" unicode="&#xa7;" 
d="M148 578v-60v0h-60v0v-120v0h60v-120v0h-60v0v-120v0h60v0v-60v0h60v0v-66v0h120v-136h-120v0v68v0h-120v0v-68v0h60v0v-66v0h240v0v66v0h60v0v136v0h-60v126v0h60v0v120v0h-60v0v60v0h-60v0v60v0h-120v120v0h120v0v-60v0h120v0v60v0h-60v0v60v0h-240v0zM328 278v-120
h-120v120h120z" />
    <glyph glyph-name="adieresis" unicode="&#xe4;" 
d="M136 440v-60v0h202v-141v0h-202v0v-60v0h-60v0v-120v0h60v0v-60v0h322v0v381v0h-60v0v60v0h-262v0zM338 179v-120h-134v120h134zM81 641v-120v0h120v0v120v0h-120v0zM321 641v-120v0h120v0v120v0h-120v0z" />
    <glyph glyph-name="Adieresis" unicode="&#xc4;" 
d="M57 770v-129v0h134v0v129v0h-134v0zM330 770v-129v0h134v0v129v0h-134v0zM198 576v-66v0h-68v0v-69v0h-66v0v-442v0h134v0v180h139v-180v0h134v0v442v0h-66v0v69v0h-68v0v66v0h-139v0zM337 441v-202h-139v0v202h139z" />
    <glyph glyph-name="odieresis" unicode="&#xf6;" 
d="M81 641v-120v0h120v0v120v0h-120v0zM321 641v-120v0h120v0v120v0h-120v0zM141 447v-60v0h-60v0v-327v0h60v0v-60v0h240v0v60v0h60v0v327v0h-60v0v60v0h-240v0zM321 387v-327h-120v0v327h120z" />
    <glyph glyph-name="Odieresis" unicode="&#xd6;" 
d="M119 580v-70v0h-60v0v-447v0h60v0v-60v0h279v0v60v0h60v0v447v0h-60v0v70v0h-279v0zM338 510v0v-447h-143v0v447h143zM57 770v-129v0h134v0v129v0h-134v0zM330 770v-129v0h134v0v129v0h-134v0z" />
    <glyph glyph-name="udieresis" unicode="&#xfc;" 
d="M83 435v-377v0h60v0v-60v0h300v0v437v0h-120v0v-377h-120v0v377v0h-120v0zM81 641v-120v0h120v0v120v0h-120v0zM321 641v-120v0h120v0v120v0h-120v0z" />
    <glyph glyph-name="Udieresis" unicode="&#xdc;" 
d="M59 572v-513v0h60v0v-60v0h281v0v60v0h60v0v513v0h-120v0v-513h-149v0v513v0h-132v0zM57 770v-129v0h134v0v129v0h-134v0zM330 770v-129v0h134v0v129v0h-134v0z" />
    <glyph glyph-name="germandbls" unicode="&#xdf;" 
d="M138 576v-60v0h-60v0v-517v0h120v0v517v0h60v-204v0h60v0v-253v0h-60v0v-60v0h120v0v60v0h60v0v253v0h-60v0v204v0h-60v0v60v0h-180v0z" />
    <glyph glyph-name="uni0001" 
d="M67 600h400v-600h-400v600z" />
    <glyph glyph-name="uni0001" 
d="M67 600h400v-600h-400v600z" />
    <glyph glyph-name="uni0001" 
d="M67 600h400v-600h-400v600z" />
    <glyph glyph-name="uni0001" 
d="M67 600h400v-600h-400v600z" />
    <glyph glyph-name="uni0001" 
d="M67 600h400v-600h-400v600z" />
    <glyph glyph-name="uni0001" 
d="M67 600h400v-600h-400v600z" />
    <glyph glyph-name="uni0001" 
d="M67 600h400v-600h-400v600z" />
    <glyph glyph-name="uni0001" 
d="M67 600h400v-600h-400v600z" />
    <glyph glyph-name="uni0001" 
d="M67 600h400v-600h-400v600z" />
    <glyph glyph-name="uni0001" 
d="M67 600h400v-600h-400v600z" />
    <glyph glyph-name="uni0001" 
d="M67 600h400v-600h-400v600z" />
    <glyph glyph-name="uni0001" 
d="M67 600h400v-600h-400v600z" />
    <glyph glyph-name="uni0001" 
d="M67 600h400v-600h-400v600z" />
    <glyph glyph-name="uni0001" 
d="M67 600h400v-600h-400v600z" />
    <glyph glyph-name="uni0001" 
d="M67 600h400v-600h-400v600z" />
    <glyph glyph-name="uni0001" 
d="M67 600h400v-600h-400v600z" />
    <glyph glyph-name="uni0001" 
d="M67 600h400v-600h-400v600z" />
    <glyph glyph-name="uni0001" 
d="M67 600h400v-600h-400v600z" />
    <glyph glyph-name="uni0001" 
d="M67 600h400v-600h-400v600z" />
    <glyph glyph-name="uni0001" 
d="M67 600h400v-600h-400v600z" />
    <glyph glyph-name="uni0001" 
d="M67 600h400v-600h-400v600z" />
    <glyph glyph-name="uni0001" 
d="M67 600h400v-600h-400v600z" />
    <glyph glyph-name="uni0001" 
d="M67 600h400v-600h-400v600z" />
    <glyph glyph-name="uni0001" 
d="M67 600h400v-600h-400v600z" />
    <glyph glyph-name="uni0001" unicode="&#x85;" 
d="M67 600h400v-600h-400v600z" />
    <glyph glyph-name="uni0001" 
d="M67 600h400v-600h-400v600z" />
    <glyph glyph-name="uni0001" 
d="M67 600h400v-600h-400v600z" />
    <glyph glyph-name="uni0001" 
d="M67 600h400v-600h-400v600z" />
    <glyph glyph-name="uni0001" 
d="M67 600h400v-600h-400v600z" />
    <glyph glyph-name="uni0001" 
d="M67 600h400v-600h-400v600z" />
    <glyph glyph-name="uni0001" 
d="M67 600h400v-600h-400v600z" />
    <glyph glyph-name="uni0001" 
d="M67 600h400v-600h-400v600z" />
    <glyph glyph-name="uni0001" 
d="M67 600h400v-600h-400v600z" />
    <glyph glyph-name="uni0001" 
d="M67 600h400v-600h-400v600z" />
    <glyph glyph-name="uni0001" 
d="M67 600h400v-600h-400v600z" />
    <glyph glyph-name="uni0001" 
d="M67 600h400v-600h-400v600z" />
    <glyph glyph-name="uni0001" 
d="M67 600h400v-600h-400v600z" />
    <glyph glyph-name="uni0001" 
d="M67 600h400v-600h-400v600z" />
    <glyph glyph-name="uni0001" 
d="M67 600h400v-600h-400v600z" />
    <glyph glyph-name="uni0001" 
d="M67 600h400v-600h-400v600z" />
    <glyph glyph-name="uni0001" 
d="M67 600h400v-600h-400v600z" />
    <glyph glyph-name="uni0001" 
d="M67 600h400v-600h-400v600z" />
    <glyph glyph-name="uni0001" 
d="M67 600h400v-600h-400v600z" />
    <glyph glyph-name="uni0001" 
d="M67 600h400v-600h-400v600z" />
    <glyph glyph-name="uni0001" 
d="M67 600h400v-600h-400v600z" />
    <glyph glyph-name="uni0001" 
d="M67 600h400v-600h-400v600z" />
    <glyph glyph-name="uni0001" 
d="M67 600h400v-600h-400v600z" />
    <glyph glyph-name="uni0001" 
d="M67 600h400v-600h-400v600z" />
    <glyph glyph-name="uni0001" 
d="M67 600h400v-600h-400v600z" />
    <glyph glyph-name="uni0001" 
d="M67 600h400v-600h-400v600z" />
    <glyph glyph-name="uni0001" 
d="M67 600h400v-600h-400v600z" />
    <glyph glyph-name="uni0001" unicode="&#xa;" 
d="M67 600h400v-600h-400v600z" />
    <glyph glyph-name="uni0001" 
d="M67 600h400v-600h-400v600z" />
    <glyph glyph-name="uni0001" 
d="M67 600h400v-600h-400v600z" />
    <glyph glyph-name="uni0001" 
d="M67 600h400v-600h-400v600z" />
    <glyph glyph-name="uni0001" 
d="M67 600h400v-600h-400v600z" />
    <glyph glyph-name="uni0001" 
d="M67 600h400v-600h-400v600z" />
    <glyph glyph-name="uni0001" 
d="M67 600h400v-600h-400v600z" />
    <glyph glyph-name="uni0001" 
d="M67 600h400v-600h-400v600z" />
    <glyph glyph-name="glyph124" 
d="M267 600h133v-267h-200z" />
    <glyph glyph-name="uni0091" 
d="M266 600h132v-66h-68v-68h68v-133h-200v201h68v66z" />
    <glyph glyph-name="uni0092" 
d="M200 600h200v-199h-67v-68h-133v68h66v67h-66v132z" />
    <glyph glyph-name="exclamdown" unicode="&#xa1;" 
d="M200 400h133v-133h-133v133zM200 200h132v-133h68v-200h-67v-67h-133v67h-67v200h67v133z" />
    <glyph glyph-name="cent" unicode="&#xa2;" 
d="M200 600h133v-133h66v-67h67v-67h-133v67h-133v-267h132v67h133v-66h-65v-66h-67v-135h-133v135h-67v65h-66v267h65v68h68v132z" />
    <glyph glyph-name="sterling" unicode="&#xa3;" 
d="M0 133h67v135h-67v65h67v200h66v67h267v-66h66v-67h-133v66h-133v-200h200v-65h-201v-134h-66v-67h334v-67h-467v133z" />
    <glyph glyph-name="currency" unicode="&#xa4;" 
d="M200 400v-133h133v133h-133zM67 533h132v-66h134v66h134v-66h-67v-67h66v-133h-67v-66h68v-68h-134v68h-133v-68h-133v67h66v67h-66v133h66v67h-66v66z" />
    <glyph glyph-name="yen" unicode="&#xa5;" 
d="M67 600h132v-199h134v199h133v-199h-66v-68h66v-66h-133v-67h132v-67h-132v-133h-133v133h-133v67h133v67h-133v66h65v68h-65v199z" />
    <glyph glyph-name="brokenbar" unicode="&#xa6;" 
d="M200 133h133v-333h-133v333zM200 600h133v-333h-133v333z" />
    <glyph glyph-name="dieresis" unicode="&#xa8;" 
d="M67 667h133v-134h-133v134zM333 667h134v-134h-134v134z" />
    <glyph glyph-name="uni00AD" unicode="&#xad;" 
d="M466 268h-400v65h400v-65z" />
    <glyph glyph-name="macron" unicode="&#xaf;" 
d="M0 800h532v-66h-532v66z" />
    <glyph glyph-name="periodcentered" unicode="&#xb7;" 
d="M200 400h200v-133h-200v133z" />
    <glyph glyph-name="logicalnot" unicode="&#xac;" 
d="M467 333v-200h-135v134h-265v66h400z" />
    <glyph glyph-name="uni00B2" unicode="&#xb2;" 
d="M133 600h200v-67h67v-66h-68v-66h-65v-68h133v-66h-267v133h67v67h67v66h-134v67z" />
    <glyph glyph-name="plusminus" unicode="&#xb1;" 
d="M466 68v-68h-399v68h399zM200 467h133v-134h133v-66h-133v-134h-133v134h-133v66h133v134z" />
    <glyph glyph-name="uni00B3" unicode="&#xb3;" 
d="M133 600h200v-67h67v-65h-67v-67h66v-67h-66v-67h-200v66h134v68h-67v66h67v66h-134v67z" />
    <glyph glyph-name="divide" unicode="&#xf7;" 
d="M200 200h133v-133h-133v133zM200 533h133v-133h-133v133zM465 333v-66h-398v66h398z" />
    <glyph glyph-name="edieresis" unicode="&#xeb;" 
d="M67 667h133v-134h-133v134zM200 400v-133h133v133h-133zM133 467h266v-67h68v-200h-267v-133h199v-66h-266v66h-66v334h66v66zM333 667h134v-134h-134v134z" />
    <glyph glyph-name="copyright" unicode="&#xa9;" 
d="M200 467h132v-67h68v-67h-67v68h-133v-201h-67v200h67v67zM67 468v-334h66v-66h267v66h67v335h-67v65h-268v-66h-65zM0 533h66v67h399v-67h68v-466h-67v-67h-399v67h-67v466zM200 200h133v67h67v-66h-68v-67h-132v66z" />
    <glyph glyph-name="ordfeminine" unicode="&#xaa;" 
d="M200 400v-67h133v67h-133zM467 200v-67h-400v67h400zM134 601h266v-68h67v-266h-335v66h-65v67h65v67h201v66h-199v68z" />
    <glyph glyph-name="guillemotleft" unicode="&#xab;" 
d="M266 334v-66h-68v-66h-66v-68h66v-67h68v-66h-133v67h-67v66h-67v66h67v67h66v67h134zM400 334h133v-65h-67v-67h-66v-68h64v-66h69v-68h-133v67h-68v67h-65v66h66v66h67v68z" />
    <glyph glyph-name="registered" unicode="&#xae;" 
d="M67 467v-333h66v-66h267v66h66v333h-66v66h-267v-66h-66zM132 133v334h200v-67h68v-133h-67v133h-133v-132h132v-68h67v-66h-67v67h-133v-68h-67zM0 533h67v67h398v-67h68v-466h-67v-67h-400v67h-66v466z" />
    <glyph glyph-name="egrave" unicode="&#xe8;" 
d="M200 400v-133h133v133h-133zM333 600v-67h-134v67h-66v67h-66v67h199v-134h67zM133 467h267v-67h66v-200h-266v-133h199v-68h-266v68h-66v333h66v67z" />
    <glyph glyph-name="eacute" unicode="&#xe9;" 
d="M200 400v-133h133v133h-133zM133 467h267v-67h67v-200h-267v-133h199v-68h-266v68h-66v334h66v66zM267 733h198v-65h-65v-67h-67v-68h-133v67h67v133z" />
    <glyph glyph-name="ecircumflex" unicode="&#xea;" 
d="M200 400v-133h133v133h-133zM133 467h267v-67h67v-200h-267v-133h199v-66h-266v66h-66v334h66v66zM200 733h132v-66h68v-66h66v-67h-134v66h-132v-67h-133v68h66v66h67v66z" />
    <glyph glyph-name="Agrave" unicode="&#xc0;" 
d="M59 470v-470h135v200h130v-200h135v470q-4 -2 -12.5 -1.5t-18 2t-18 4t-11.5 5.5q-2 1 -3 10t-2 19.5t-2.5 19.5t-2.5 11q-2 1 -11 2.5t-19.5 2.5t-19.5 2t-10 3q-3 3 -5.5 11.5t-4 18t-2 18t1.5 12.5h-120q2 -4 1.5 -12.5t-2 -18t-4 -18t-5.5 -11.5q-2 -2 -11 -3
t-19.5 -2t-19.5 -2.5t-10 -2.5q-2 -2 -3 -11t-2 -19.5t-2.5 -19.5t-2.5 -10q-3 -3 -11.5 -5.5t-18 -4t-18 -2t-12.5 1.5zM199 470h120v-190h-120v190zM129 803h133v-67h66v-67h-133v67h-66v67z" />
    <glyph glyph-name="Aacute" unicode="&#xc1;" 
d="M59 470v-470h135v200h130v-200h135v470q-4 -2 -12.5 -1.5t-18 2t-18 4t-11.5 5.5q-2 1 -3 10t-2 19.5t-2.5 19.5t-2.5 11q-2 1 -11 2.5t-19.5 2.5t-19.5 2t-10 3q-3 3 -5.5 11.5t-4 18t-2 18t1.5 12.5h-120q2 -4 1.5 -12.5t-2 -18t-4 -18t-5.5 -11.5q-2 -2 -11 -3
t-19.5 -2t-19.5 -2.5t-10 -2.5q-2 -2 -3 -11t-2 -19.5t-2.5 -19.5t-2.5 -10q-3 -3 -11.5 -5.5t-18 -4t-18 -2t-12.5 1.5zM199 470h120v-190h-120v190zM263 737v66h134v-65h-68v-68h-131v67h65z" />
    <glyph glyph-name="Acircumflex" unicode="&#xc2;" 
d="M59 470v-470h135v200h130v-200h135v470q-4 -2 -12.5 -1.5t-18 2t-18 4t-11.5 5.5q-2 1 -3 10t-2 19.5t-2.5 19.5t-2.5 11q-2 1 -11 2.5t-19.5 2.5t-19.5 2t-10 3q-3 3 -5.5 11.5t-4 18t-2 18t1.5 12.5h-120q2 -4 1.5 -12.5t-2 -18t-4 -18t-5.5 -11.5q-2 -2 -11 -3
t-19.5 -2t-19.5 -2.5t-10 -2.5q-2 -2 -3 -11t-2 -19.5t-2.5 -19.5t-2.5 -10q-3 -3 -11.5 -5.5t-18 -4t-18 -2t-12.5 1.5zM199 470h120v-190h-120v190zM130 803h267v-66h67v-68h-134v67h-133v-66h-133v66h66v67z" />
    <glyph glyph-name="Atilde" unicode="&#xc3;" 
d="M59 470v-470h135v200h130v-200h135v470q-4 -2 -12.5 -1.5t-18 2t-18 4t-11.5 5.5q-2 1 -3 10t-2 19.5t-2.5 19.5t-2.5 11q-2 1 -11 2.5t-19.5 2.5t-19.5 2t-10 3q-3 3 -5.5 11.5t-4 18t-2 18t1.5 12.5h-120q2 -4 1.5 -12.5t-2 -18t-4 -18t-5.5 -11.5q-2 -2 -11 -3
t-19.5 -2t-19.5 -2.5t-10 -2.5q-2 -2 -3 -11t-2 -19.5t-2.5 -19.5t-2.5 -10q-3 -3 -11.5 -5.5t-18 -4t-18 -2t-12.5 1.5zM199 470h120v-190h-120v190zM129 803h200v-66h67v66h132v-67h-67v-65h-198v65h-67v-65h-133v65h66v67z" />
    <glyph glyph-name="Aring" unicode="&#xc5;" 
d="M59 470v-470h135v200h130v-200h135v470q-4 -2 -12.5 -1.5t-18 2t-18 4t-11.5 5.5q-2 1 -3 10t-2 19.5t-2.5 19.5t-2.5 11q-2 1 -11 2.5t-19.5 2.5t-19.5 2t-10 3q-3 3 -5.5 11.5t-4 18t-2 18t75.5 6.5v71h66v63h-65v66h-265v-65h-68v-64h65v-69q75 0 74.5 -8.5t-2 -18
t-4 -18t-5.5 -11.5q-2 -2 -11 -3t-19.5 -2t-19.5 -2.5t-10 -2.5q-2 -2 -3 -11t-2 -19.5t-2.5 -19.5t-2.5 -10q-3 -3 -11.5 -5.5t-18 -4t-18 -2t-12.5 1.5zM199 470h120v-190h-120v190zM194 739h133v-66h-133v66z" />
    <glyph glyph-name="Egrave" unicode="&#xc8;" 
d="M59 610v-610h400v65h-260v210h190v60h-190v210h260v65h-400v0zM127 805h131v-64h67v-63h-134v62h-64v65z" />
    <glyph glyph-name="Eacute" unicode="&#xc9;" 
d="M59 610v-610h400v65h-260v210h190v60h-190v210h260v65h-400v0zM260 803h132v-66h-66v-66h-133v66h67v66z" />
    <glyph glyph-name="Ecircumflex" unicode="&#xca;" 
d="M59 610v-610h400v65h-260v210h190v60h-190v210h260v65h-400v0zM129 806h265v-66h67v-66h-132v65h-134v-66h-133v67h67v66z" />
    <glyph glyph-name="Edieresis" unicode="&#xcb;" 
d="M59 610v-610h400v65h-260v210h190v60h-190v210h260v65h-400v0zM62 807h132v-133h-132v133zM326 806h132v-133h-132v133z" />
    <glyph glyph-name="Igrave" unicode="&#xcc;" 
d="M124 65v-65h260v65h-60v480h60v65h-260v-65h60v-480h-60v0zM127 806h133v-67h66v-65h-133v66h-66v66z" />
    <glyph glyph-name="Iacute" unicode="&#xcd;" 
d="M124 65v-65h260v65h-60v480h60v65h-260v-65h60v-480h-60v0zM261 805h132v-67h-66v-66h-133v65h67v68z" />
    <glyph glyph-name="Icircumflex" unicode="&#xce;" 
d="M124 65v-65h260v65h-60v480h60v65h-260v-65h60v-480h-60v0zM124 809h266v-66h67v-66h-133v66h-134v-66h-132v65h66v67z" />
    <glyph glyph-name="Idieresis" unicode="&#xcf;" 
d="M124 65v-65h260v65h-60v480h60v65h-260v-65h60v-480h-60v0zM55 813h133v-131h-133v131zM322 812h132v-132h-132v132z" />
    <glyph glyph-name="Ograve" unicode="&#xd2;" 
d="M75 69q4 2 12.5 1.5t18 -2t18 -4t11.5 -5.5t5.5 -11.5t4 -18t2 -18t-1.5 -12.5h260q-2 4 -1.5 12.5t2 18t4 18t5.5 11.5t11.5 5.5t18 4t18 2t12.5 -1.5v470q-4 -2 -12.5 -1.5t-18 2t-18 4t-11.5 5.5t-5.5 11.5t-4 18t-2 18t1.5 12.5h-260q2 -4 1.5 -12.5t-2 -18t-4 -18
t-5.5 -11.5t-11.5 -5.5t-18 -4t-18 -2t-12.5 1.5v-470zM215 539h120v-470h-120v470zM142 808h133v-66h67v-68h-133v68h-67v66z" />
    <glyph glyph-name="Oacute" unicode="&#xd3;" 
d="M75 69q4 2 12.5 1.5t18 -2t18 -4t11.5 -5.5t5.5 -11.5t4 -18t2 -18t-1.5 -12.5h260q-2 4 -1.5 12.5t2 18t4 18t5.5 11.5t11.5 5.5t18 4t18 2t12.5 -1.5v470q-4 -2 -12.5 -1.5t-18 2t-18 4t-11.5 5.5t-5.5 11.5t-4 18t-2 18t1.5 12.5h-260q2 -4 1.5 -12.5t-2 -18t-4 -18
t-5.5 -11.5t-11.5 -5.5t-18 -4t-18 -2t-12.5 1.5v-470zM215 539h120v-470h-120v470zM276 806h132v-66h-66v-66h-133v65h67v67z" />
    <glyph glyph-name="Ocircumflex" unicode="&#xd4;" 
d="M75 69q4 2 12.5 1.5t18 -2t18 -4t11.5 -5.5t5.5 -11.5t4 -18t2 -18t-1.5 -12.5h260q-2 4 -1.5 12.5t2 18t4 18t5.5 11.5t11.5 5.5t18 4t18 2t12.5 -1.5v470q-4 -2 -12.5 -1.5t-18 2t-18 4t-11.5 5.5t-5.5 11.5t-4 18t-2 18t1.5 12.5h-260q2 -4 1.5 -12.5t-2 -18t-4 -18
t-5.5 -11.5t-11.5 -5.5t-18 -4t-18 -2t-12.5 1.5v-470zM215 539h120v-470h-120v470zM141 808h266v-68h66v-65h-132v67h-133v-66h-133v65h66v67z" />
    <glyph glyph-name="Otilde" unicode="&#xd5;" 
d="M75 69q4 2 12.5 1.5t18 -2t18 -4t11.5 -5.5t5.5 -11.5t4 -18t2 -18t-1.5 -12.5h260q-2 4 -1.5 12.5t2 18t4 18t5.5 11.5t11.5 5.5t18 4t18 2t12.5 -1.5v470q-4 -2 -12.5 -1.5t-18 2t-18 4t-11.5 5.5t-5.5 11.5t-4 18t-2 18t1.5 12.5h-260q2 -4 1.5 -12.5t-2 -18t-4 -18
t-5.5 -11.5t-11.5 -5.5t-18 -4t-18 -2t-12.5 1.5v-470zM215 539h120v-470h-120v470zM138 807h200v-66h67v66h132v-66h-66v-66h-199v65h-67v-65h-133v65h66v67z" />
    <glyph glyph-name="Ugrave" unicode="&#xd9;" 
d="M56 70q4 2 12.5 1.5t18 -2t18 -4t11.5 -5.5t5.5 -11.5t4 -18t2 -18t-1.5 -12.5h260q-2 4 -1.5 12.5t2 18t4 18t5.5 11.5t11.5 5.5t18 4t18 2t12.5 -1.5v540h-135v-540h-130v540h-135v-540zM124 809h133v-65h65v-67h-131v67h-67v65z" />
    <glyph glyph-name="Uacute" unicode="&#xda;" 
d="M56 70q4 2 12.5 1.5t18 -2t18 -4t11.5 -5.5t5.5 -11.5t4 -18t2 -18t-1.5 -12.5h260q-2 4 -1.5 12.5t2 18t4 18t5.5 11.5t11.5 5.5t18 4t18 2t12.5 -1.5v540h-135v-540h-130v540h-135v-540zM259 809h133v-66h-68v-66h-132v66h67v66z" />
    <glyph glyph-name="Ucircumflex" unicode="&#xdb;" 
d="M56 70q4 2 12.5 1.5t18 -2t18 -4t11.5 -5.5t5.5 -11.5t4 -18t2 -18t-1.5 -12.5h260q-2 4 -1.5 12.5t2 18t4 18t5.5 11.5t11.5 5.5t18 4t18 2t12.5 -1.5v540h-135v-540h-130v540h-135v-540zM124 809h268v-66h65v-65h-132v65h-132v-66h-134v66h65v66z" />
    <glyph glyph-name="ograve" unicode="&#xf2;" 
d="M59 70q4 2 12.5 1.5t18 -2t18 -4t11.5 -5.5t5.5 -11.5t4 -18t2 -18t-1.5 -12.5h260q-2 4 -1.5 12.5t2 18t4 18t5.5 11.5t11.5 5.5t18 4t18 2t12.5 -1.5v330q-4 -2 -12.5 -1.5t-18 2t-18 4t-11.5 5.5t-5.5 11.5t-4 18t-2 18t1.5 12.5h-260q2 -4 1.5 -12.5t-2 -18t-4 -18
t-5.5 -11.5t-11.5 -5.5t-18 -4t-18 -2t-12.5 1.5v-330zM199 400h120v-330h-120v330zM59 742h200v-133h66v-67h-132v67h-68v67h-66v66z" />
    <glyph glyph-name="oacute" unicode="&#xf3;" 
d="M59 70q4 2 12.5 1.5t18 -2t18 -4t11.5 -5.5t5.5 -11.5t4 -18t2 -18t-1.5 -12.5h260q-2 4 -1.5 12.5t2 18t4 18t5.5 11.5t11.5 5.5t18 4t18 2t12.5 -1.5v330q-4 -2 -12.5 -1.5t-18 2t-18 4t-11.5 5.5t-5.5 11.5t-4 18t-2 18t1.5 12.5h-260q2 -4 1.5 -12.5t-2 -18t-4 -18
t-5.5 -11.5t-11.5 -5.5t-18 -4t-18 -2t-12.5 1.5v-330zM199 400h120v-330h-120v330zM254 741h199v-66h-65v-67h-67v-67h-133v66h66v134z" />
    <glyph glyph-name="ocircumflex" unicode="&#xf4;" 
d="M59 70q4 2 12.5 1.5t18 -2t18 -4t11.5 -5.5t5.5 -11.5t4 -18t2 -18t-1.5 -12.5h260q-2 4 -1.5 12.5t2 18t4 18t5.5 11.5t11.5 5.5t18 4t18 2t12.5 -1.5v330q-4 -2 -12.5 -1.5t-18 2t-18 4t-11.5 5.5t-5.5 11.5t-4 18t-2 18t1.5 12.5h-260q2 -4 1.5 -12.5t-2 -18t-4 -18
t-5.5 -11.5t-11.5 -5.5t-18 -4t-18 -2t-12.5 1.5v-330zM199 400h120v-330h-120v330zM192 737h133v-66h67v-68h65v-66h-132v67h-134v-68h-132v67h65v67h68v67z" />
    <glyph glyph-name="otilde" unicode="&#xf5;" 
d="M59 70q4 2 12.5 1.5t18 -2t18 -4t11.5 -5.5t5.5 -11.5t4 -18t2 -18t-1.5 -12.5h260q-2 4 -1.5 12.5t2 18t4 18t5.5 11.5t11.5 5.5t18 4t18 2t12.5 -1.5v330q-4 -2 -12.5 -1.5t-18 2t-18 4t-11.5 5.5t-5.5 11.5t-4 18t-2 18t1.5 12.5h-260q2 -4 1.5 -12.5t-2 -18t-4 -18
t-5.5 -11.5t-11.5 -5.5t-18 -4t-18 -2t-12.5 1.5v-330zM199 400h120v-330h-120v330zM0 672h67v65h199v-66h66v-67h68v68h65v65h67v-132h-67l1 -67h-199v67h-67v67h-68v-68h-66v-66h-66v134z" />
    <glyph glyph-name="ugrave" unicode="&#xf9;" 
d="M59 70q4 2 12.5 1.5t18 -2t18 -4t11.5 -5.5t5.5 -11.5t4 -18t2 -18t-1.5 -12.5h330v470h-135v-400h-130v400h-135v-400zM58 738h199v-132h67v-68h-133v68h-67v67h-66v65z" />
    <glyph glyph-name="uacute" unicode="&#xfa;" 
d="M59 70q4 2 12.5 1.5t18 -2t18 -4t11.5 -5.5t5.5 -11.5t4 -18t2 -18t-1.5 -12.5h330v470h-135v-400h-130v400h-135v-400zM259 737h199v-66h-66v-66h-67v-67h-133v66h67v133z" />
    <glyph glyph-name="ucircumflex" unicode="&#xfb;" 
d="M59 70q4 2 12.5 1.5t18 -2t18 -4t11.5 -5.5t5.5 -11.5t4 -18t2 -18t-1.5 -12.5h330v470h-135v-400h-130v400h-135v-400zM193 736h132v-65h67v-67h66v-67h-133v67h-133v-68h-132v67h66v67h67v66z" />
    <glyph glyph-name="Ntilde" unicode="&#xd1;" 
d="M63 610v-610h135v311q3 0 11 4t16.5 8t16.5 6.5t11 0.5t5.5 -9t4 -15t2 -15.5t-1.5 -10.5q4 2 12.5 1.5t18 -2t18 -4t11.5 -5.5q1 -2 2.5 -11t2.5 -19.5t2 -19.5t3 -10q3 -3 12 -5.5t19.5 -4t20 -2t13.5 1.5v-200h135v610h-135v-270h-65q2 4 1.5 12.5t-2 18t-4 18
t-5.5 11.5q-2 1 -11 2.5t-19.5 2.5t-19.5 2t-10 3q-3 3 -5.5 12t-4 19.5t-2 20t1.5 13.5h-55v135h-135zM132 800h201v-66h66l1 66h132v-66h-66v-66h-199v66h-68v-66h-134v66h67v66z" />
    <glyph glyph-name="Eth" unicode="&#xd0;" 
d="M55 611v-271h-55v-64h54v-276h260q-2 4 -1.5 12.5t2 18t4 18t5.5 11.5q1 1 10 2.5t19.5 2.5t19.5 2t11 3q1 1 2.5 10t2.5 19.5t2 19.5t3 11q3 3 11.5 5.5t18 4t18 2t12.5 -1.5v330q-4 -2 -12.5 -1.5t-18 2t-18 4t-11.5 5.5q-2 1 -3 10t-2 19.5t-2.5 19.5t-2.5 11
q-2 1 -11 2.5t-19.5 2.5t-19.5 2t-10 3q-3 3 -5.5 11.5t-4 18t-2 18t1.5 12.5zM194 540h50q-2 -4 -1.5 -12.5t2 -18t4 -18t5.5 -11.5t11.5 -5.5t18 -4t18 -2t12.5 1.5v-330q-4 2 -12.5 1.5t-18 -2t-18 -4t-11.5 -5.5t-5.5 -11.5t-4 -18t-2 -18t1.5 -12.5h-50v205h67v65h-67
v200z" />
    <glyph glyph-name="Yacute" unicode="&#xdd;" 
d="M189 275v-275h130v275h70v60h65v275h-135v-270h-130v270h-135v-275h65v-60h70v0zM189 743h68v67h132v-66h-66v-66h-134v65z" />
    <glyph glyph-name="agrave" unicode="&#xe0;" 
d="M59 70q4 2 12.5 1.5t18 -2t18 -4t11.5 -5.5t5.5 -11.5t4 -18t2 -18t-1.5 -12.5h330v400q-4 -2 -12.5 -1.5t-18 2t-18 4t-11.5 5.5t-5.5 11.5t-4 18t-2 18t1.5 12.5h-260v-65h190v-130h-190q2 -4 1.5 -13.5t-2 -20t-4 -19.5t-5.5 -12t-11.5 -5.5t-18 -4t-18 -2t-12.5 1.5
v-130zM199 200h120v-130h-120v130zM63 737h198v-133h66v-67h-133v67h-66v68h-65v65z" />
    <glyph glyph-name="aacute" unicode="&#xe1;" 
d="M59 70q4 2 12.5 1.5t18 -2t18 -4t11.5 -5.5t5.5 -11.5t4 -18t2 -18t-1.5 -12.5h330v400q-4 -2 -12.5 -1.5t-18 2t-18 4t-11.5 5.5t-5.5 11.5t-4 18t-2 18t1.5 12.5h-260v-65h190v-130h-190q2 -4 1.5 -13.5t-2 -20t-4 -19.5t-5.5 -12t-11.5 -5.5t-18 -4t-18 -2t-12.5 1.5
v-130zM199 200h120v-130h-120v130zM459 739l1 -65h-67v-67h-66v-68h-133v67h67v133h198z" />
    <glyph glyph-name="acircumflex" unicode="&#xe2;" 
d="M59 70q4 2 12.5 1.5t18 -2t18 -4t11.5 -5.5t5.5 -11.5t4 -18t2 -18t-1.5 -12.5h330v400q-4 -2 -12.5 -1.5t-18 2t-18 4t-11.5 5.5t-5.5 11.5t-4 18t-2 18t1.5 12.5h-260v-65h190v-130h-190q2 -4 1.5 -13.5t-2 -20t-4 -19.5t-5.5 -12t-11.5 -5.5t-18 -4t-18 -2t-12.5 1.5
v-130zM199 200h120v-130h-120v130zM461 606v-68h-133v68h-134v-67h-133v66h67v67h66v66h133v-66h67v-66h67z" />
    <glyph glyph-name="atilde" unicode="&#xe3;" 
d="M59 70q4 2 12.5 1.5t18 -2t18 -4t11.5 -5.5t5.5 -11.5t4 -18t2 -18t-1.5 -12.5h330v400q-4 -2 -12.5 -1.5t-18 2t-18 4t-11.5 5.5t-5.5 11.5t-4 18t-2 18t1.5 12.5h-260v-65h190v-130h-190q2 -4 1.5 -13.5t-2 -20t-4 -19.5t-5.5 -12t-11.5 -5.5t-18 -4t-18 -2t-12.5 1.5
v-130zM199 200h120v-130h-120v130zM532 736v-132h-67v-68h-198v67h-67v67h-68v-66h-66v-67h-66v133h67v67h200v-67h66v-67h66v67h66v66h67z" />
    <glyph glyph-name="aring" unicode="&#xe5;" 
d="M59 70q4 2 12.5 1.5t18 -2t18 -4t11.5 -5.5t5.5 -11.5t4 -18t2 -18t-1.5 -12.5h330v400q-4 -2 -12.5 -1.5t-18 2t-18 4t-11.5 5.5t-5.5 11.5t-4 18t-2 18t1.5 12.5h-260v-65h190v-130h-190q2 -4 1.5 -13.5t-2 -20t-4 -19.5t-5.5 -12t-11.5 -5.5t-18 -4t-18 -2t-12.5 1.5
v-130zM199 200h120v-130h-120v130zM459 674h-67v66h-266v-66h-66v-67h65v-67h268v68h66v66zM194 672h133v-67h-132z" />
    <glyph glyph-name="igrave" unicode="&#xec;" 
d="M59 65v-65h400v65h-135v405h-265v-65h130v-340h-130v0zM194 537h133v67h-67v133h-200v-65h67v-67h67v-68z" />
    <glyph glyph-name="iacute" unicode="&#xed;" 
d="M59 65v-65h400v65h-135v405h-265v-65h130v-340h-130v0zM109 577zM257 606h-66v-67h132v67h67v67h67v65h-200v-132z" />
    <glyph glyph-name="icircumflex" unicode="&#xee;" 
d="M59 65v-65h400v65h-135v405h-265v-65h130v-340h-130v0zM192 737v-66h-67v-67h-66v-67h133v68h133v-67h134v66h-66v67h-67v66h-134v0z" />
    <glyph glyph-name="idieresis" unicode="&#xef;" 
d="M59 65v-65h400v65h-135v405h-265v-65h130v-340h-130v0zM323 672v-135h134v135h-134v0zM58 672v-135h134v135h-134v0z" />
    <glyph glyph-name="ntilde" unicode="&#xf1;" 
d="M59 470v-470h135v400h130v-400h135v400l-65 7v63h-335v0zM533 736v-133h-67v-68h-199v67h-67v67h-68v-66h-66v-68h-67v134h67v67h200v-66h66v-67h68v66h66v67h67z" />
    <glyph glyph-name="yacute" unicode="&#xfd;" 
d="M6 -139v-55h265v50q4 -2 13.5 -1.5t20 2t19.5 4t12 5.5q1 1 2.5 10t2.5 19.5t2 19.5t3 11q3 3 12 5.5t19.5 4t20 2t13.5 -1.5v135h65v405h-135v-400h-130v400h-135v-400q4 2 12.5 1.5t18 -2t18 -4t11.5 -5.5t5.5 -12t4 -19.5t2 -20t-1.5 -13.5h120v-70h-55v-70h-205z
M272 744h200v-66h-66v-67h-67v-68h-133v67h67z" />
    <glyph glyph-name="ydieresis" unicode="&#xff;" 
d="M6 -139v-55h265v50q4 -2 13.5 -1.5t20 2t19.5 4t12 5.5q1 1 2.5 10t2.5 19.5t2 19.5t3 11q3 3 12 5.5t19.5 4t20 2t13.5 -1.5v135h65v405h-135v-400h-130v400h-135v-400q4 2 12.5 1.5t18 -2t18 -4t11.5 -5.5t5.5 -12t4 -19.5t2 -20t-1.5 -13.5h120v-70h-55v-70h-205z
M207 674v-134h-133v134h133zM476 674v-134h-134v134h134z" />
    <glyph glyph-name="oslash" unicode="&#xf8;" 
d="M200 133v-66h133v133h-66v-67h-67zM200 400v-133h66v66h67v67h-133zM133 467h333v-400h-66v-67h-333v400h66v67z" />
    <glyph glyph-name="cedilla" unicode="&#xb8;" 
d="M200 0h132v-67h68v-65h-67v-68h-200v67h134v66h-67v67z" />
    <glyph glyph-name="uni00B9" unicode="&#xb9;" 
d="M200 600h133v-333h-133v200h-67v67h67v66z" />
    <glyph glyph-name="ordmasculine" unicode="&#xba;" 
d="M135 600v-66h-66v-201h65v-66h268v66h66v200h-66v67h-267zM466 200v-67h-399v67h399zM200 333v200h133v-200h-133z" />
    <glyph glyph-name="paragraph" unicode="&#xb6;" 
d="M533 600v-67h-67v-733h-133v333h-133v67h-67v67h-66v200h66v66h67v67h333z" />
    <glyph glyph-name="mu" unicode="&#xb5;" 
d="M199 467v-400h134v400h132v-400h68v-67h-133v68h-67v-68h-133v-132h-67v-68h-133v67h67v600h132z" />
    <glyph glyph-name="Thorn" unicode="&#xde;" 
d="M200 200h133v200h-133v-200zM67 600h133v-132h199v-68h66v-199h-66v-67h-199v-134h-133v600z" />
    <glyph glyph-name="thorn" unicode="&#xfe;" 
d="M200 68h133v266h-133v-266zM67 600h133v-199h199v-68h66v-266h-65v-67h-200v-200h-133v800z" />
    <glyph glyph-name="guillemotright" unicode="&#xbb;" 
d="M266 334v-66h68v-66h66v-68h-66v-67h-68v-66h133v67h67v66h67v66h-67v67h-66v67h-134zM132 334h-133v-65h67v-67h66v-68h-64v-66h-69v-68h133v67h68v67h65v66h-66v66h-67v68z" />
    <glyph glyph-name="Ccedilla" unicode="&#xc7;" 
d="M59 70q4 2 12.5 1.5t18 -2t18 -4t11.5 -5.5t5.5 -11.5t4 -18t2 -18t-1.5 -12.5h64v-66h72v-65h-137v-68h204v68h66v64h-67v67h58q-2 4 -1.5 12.5t2 18t4 18t5.5 11.5t11.5 5.5t18 4t18 2t12.5 -1.5v130h-135v-130h-125v470h125v-130h135v130q-4 -2 -12.5 -1.5t-18 2
t-18 4t-11.5 5.5t-5.5 11.5t-4 18t-2 18t1.5 12.5h-260q2 -4 1.5 -12.5t-2 -18t-4 -18t-5.5 -11.5t-11.5 -5.5t-18 -4t-18 -2t-12.5 1.5v-470z" />
    <glyph glyph-name="Oslash" unicode="&#xd8;" 
d="M200 133v-66h133v201h-66v-135h-67zM199 533v-200h67v134h66v66h-133zM133 600l333 1v-534h-66v-67h-333v534h66v66z" />
    <glyph glyph-name="multiply" unicode="&#xd7;" 
d="M67 200v-132h65v65h68v68h133v-67h66v-66h66v132h-66v67h-67v67h68v66h66v134h-66v-67h-67v-67h-134v68h-67v66h-65v-133h66v-67h66v-67h-67v-67h-65z" />
    <glyph glyph-name="questiondown" unicode="&#xbf;" 
d="M328 270v130h-120v-130h120zM329 72v125h-125v-120q-4 2 -13.5 1.5t-20 -2t-19.5 -4t-12 -5.5q-1 -1 -2.5 -10t-2.5 -19.5t-2 -19.5t-3 -11q-3 -3 -11.5 -5.5t-18 -4t-18 -2t-12.5 1.5v-130q4 2 12.5 1.5t18 -2t18 -4t11.5 -5.5t5.5 -11.5t4 -18t2 -18t-1.5 -12.5h260
q-2 4 -1.5 12.5t2 18t4 18t5.5 11.5t11.5 5.5t18 4t18 2t12.5 -1.5v130h-135v-130h-125v130q4 -2 12.5 -1.5t18 2t18 4t11.5 5.5t5.5 12t4 19.5t2 20t-1.5 13.5h50z" />
    <glyph glyph-name="ccedilla" unicode="&#xe7;" 
d="M56 70q4 2 12.5 1.5t18 -2t18 -4t11.5 -5.5t5.5 -11.5t4 -18t2 -18t-1.5 -12.5h67v-64h68v-63h-130v-69h198v69h66v62h-66v67h56q-1 2 -0.5 10.5t2 18t4 18t5.5 11.5t11.5 5.5t18 4t18 2t12.5 -1.5v60h-135v-60h-125v330h125v-60h135v60q-4 -2 -12.5 -1.5t-18 2t-18 4
t-11.5 5.5t-5.5 11.5t-4 18t-2 18t1.5 12.5h-260q2 -4 1.5 -12.5t-2 -18t-4 -18t-5.5 -11.5t-11.5 -5.5t-18 -4t-18 -2t-12.5 1.5v-330z" />
    <glyph glyph-name="eth" unicode="&#xf0;" 
d="M200 334h133v-267h-133v267zM332 600v-67h-66v67h-133v-67h67v-66h-133v-67h133v-67h-133v-266h66v-67h267v68h65v333h-65v66h-68v67h133v66h-133zM200 400h67v67h-67v-67z" />
    <glyph glyph-name="ae" unicode="&#xe6;" 
d="M533 401v-200h-200v-133h199v-68h-199v68h-66v-68h-200v68h-67v133h66v67h134v133h-133v67h132v-67h67v67h199v-67h68zM333 267h67v133h-67v-133zM133 67h67v133h-67v-133z" />
    <glyph glyph-name="AE" unicode="&#xc6;" 
d="M267 600h266v-67h-133v-199h132v-66h-132v-201h132v-67h-265v201h-68v-201h-132v400h65v67h67v66h68v67zM200 267h67v133h-67v-133z" />
    <glyph glyph-name="onequarter" unicode="&#xbc;" 
d="M67 667h132v-334h68v68h66v66h66v66h134v-65h-68v-67h-66v-67h-66v-67h200v-334h-133v67h-200v133h-68v-66h-132v66h66v67h67v67h67v66h-134v200h-66v68h67v66zM333 67h67v66h-67v-66zM267 200h66v67h-66v-67zM200 133h67v67h-67v-67z" />
    <glyph glyph-name="onehalf" unicode="&#xbd;" 
d="M67 667h132v-334h68v68h66v66h66v66h134v-65h-68v-67h-66v-67h-66v-67h132v-66h67v-67h-67v-66h-65v-68h133v-67h-267v135h66v66h67v67h-199v-68h-68v-66h-132v66h66v67h67v67h67v66h-134v200h-66v68h67v66z" />
    <glyph glyph-name="threequarters" unicode="&#xbe;" 
d="M0 667h199v-67h67v-66h-67v-67h67v-66h-67v-68h68v68h66v66h66v66h134v-65h-68v-67h-66v-67h-66v-67h199v-334h-132v66h-200v135h67v66h66v67h-67v-66h-66v-68h-68v-66h-132v66h66v67h67v67h67v66h-200v68h132v67h-66v65h67v68h-133v66zM333 67h67v66h-67v-66z" />
    <glyph glyph-name="Euro" unicode="&#x20ac;" 
d="M125 625h311v-61h63v-64h-124v63h-188v-162h188v-57l-189 -1v-63h126v-64h-126v-153h188v62h125v-61h-62v-64h-313v64h-61v154h-63v63h63v63h-63v56h62v163h63v62z" />
  </font>
</defs>
</svg>
